Author Topic: Pink Floyd - The Endless River  (Read 95 times)

Kirnetro

  • Administrator
  • Hero Member
  • *****
  • Posts: 538
  • Location: The Netherlands
Pink Floyd - The Endless River
« on: November 14, 2014, 12:06:33 pm »

.flac

Download: https://mega.co.nz/#!NNVXWKyB!MndCQaOUaUFnYgbiJxUWWFlyI9xDXt7QLxnXiMYsV4Y

Exact Audio Copy V1.0 beta 3 from 29. August 2011

EAC extraction logfile from 6. November 2014, 18:17

Pink Floyd / The Endless River

Used drive  : HL-DT-STDVDRAM GU71N   Adapter: 0  ID: 0

Read mode               : Secure
Utilize accurate stream : Yes
Defeat audio cache      : Yes
Make use of C2 pointers : No

Read offset correction                      : 6
Overread into Lead-In and Lead-Out          : No
Fill up missing offset samples with silence : Yes
Delete leading and trailing silent blocks   : No
Null samples used in CRC calculations       : Yes
Used interface                              : Native Win32 interface for Win NT & 2000
Gap handling                                : Appended to previous track

Used output format              : User Defined Encoder
Selected bitrate                : 896 kBit/s
Quality                         : High
Add ID3 tag                     : No
Command line compressor         : C:\Program Files (x86)\Exact Audio Copy\FLAC\FLAC.EXE
Additional command line options : -8 -V -T "ARTIST=%artist%" -T "TITLE=%title%" -T "ALBUM=%albumtitle%" -T "DATE=%year%" -T "TRACKNUMBER=%tracknr%" -T "GENRE=%genre%" -T "PERFORMER=%albuminterpret%" -T "COMPOSER=%composer%" %haslyrics%--tag-from-file=LYRICS="%lyricsfile%"%haslyrics% -T "ALBUMARTIST=%albumartist%" -T "DISCNUMBER=%cdnumber%" -T "TOTALDISCS=%totalcds%" -T "TOTALTRACKS=%numtracks%" -T "COMMENT=%comment%" %source% -o %dest%


TOC of the extracted CD

     Track |   Start  |  Length  | Start sector | End sector
    ---------------------------------------------------------
        1  |  0:00.00 |  4:26.55 |         0    |    20004   
        2  |  4:26.55 |  6:17.23 |     20005    |    48302   
        3  | 10:44.03 |  1:55.35 |     48303    |    56962   
        4  | 12:39.38 |  4:48.27 |     56963    |    78589   
        5  | 17:27.65 |  2:37.01 |     78590    |    90365   
        6  | 20:04.66 |  1:07.09 |     90366    |    95399   
        7  | 21:12.00 |  3:16.60 |     95400    |   110159   
        8  | 24:28.60 |  1:42.71 |    110160    |   117880   
        9  | 26:11.56 |  1:42.01 |    117881    |   125531   
       10  | 27:53.57 |  1:42.15 |    125532    |   133196   
       11  | 29:35.72 |  1:57.21 |    133197    |   141992   
       12  | 31:33.18 |  1:35.11 |    141993    |   149128   
       13  | 33:08.29 |  1:32.31 |    149129    |   156059   
       14  | 34:40.60 |  3:29.34 |    156060    |   171768   
       15  | 38:10.19 |  3:37.70 |    171769    |   188113   
       16  | 41:48.14 |  1:51.13 |    188114    |   196451   
       17  | 43:39.27 |  2:46.19 |    196452    |   208920   
       18  | 46:25.46 |  6:36.64 |    208921    |   238684   


Track  1

     Filename C:\Users\Adi\Music\Pink Floyd - The Endless River (2014) FLAC\01 Things Left Unsaid.wav

     Pre-gap length  0:00:02.00

     Peak level 74.3 %
     Extraction speed 1.1 X
     Track quality 100.0 %
     Test CRC 3245153C
     Copy CRC 3245153C
     Track not present in AccurateRip database
     Copy OK

Track  2

     Filename C:\Users\Adi\Music\Pink Floyd - The Endless River (2014) FLAC\02 It's What We Do.wav

     Peak level 98.5 %
     Extraction speed 1.4 X
     Track quality 100.0 %
     Test CRC B5953F7A
     Copy CRC B5953F7A
     Track not present in AccurateRip database
     Copy OK

Track  3

     Filename C:\Users\Adi\Music\Pink Floyd - The Endless River (2014) FLAC\03 Ebb And Flow.wav

     Peak level 61.4 %
     Extraction speed 1.2 X
     Track quality 100.0 %
     Test CRC 85A6D5EE
     Copy CRC 85A6D5EE
     Track not present in AccurateRip database
     Copy OK

Track  4

     Filename C:\Users\Adi\Music\Pink Floyd - The Endless River (2014) FLAC\04 Sum.wav

     Pre-gap length  0:00:00.90

     Peak level 94.6 %
     Extraction speed 1.5 X
     Track quality 100.0 %
     Test CRC 4539BA6D
     Copy CRC 4539BA6D
     Track not present in AccurateRip database
     Copy OK

Track  5

     Filename C:\Users\Adi\Music\Pink Floyd - The Endless River (2014) FLAC\05 Skins.wav

     Peak level 93.5 %
     Extraction speed 1.2 X
     Track quality 99.9 %
     Test CRC 5A7A090D
     Copy CRC 5A7A090D
     Track not present in AccurateRip database
     Copy OK

Track  6

     Filename C:\Users\Adi\Music\Pink Floyd - The Endless River (2014) FLAC\06 Unsung.wav

     Peak level 75.0 %
     Extraction speed 1.2 X
     Track quality 100.0 %
     Test CRC 0856FD98
     Copy CRC 0856FD98
     Track not present in AccurateRip database
     Copy OK

Track  7

     Filename C:\Users\Adi\Music\Pink Floyd - The Endless River (2014) FLAC\07 Anisina.wav

     Peak level 100.0 %
     Extraction speed 1.6 X
     Track quality 100.0 %
     Test CRC 1ECE3D4D
     Copy CRC 1ECE3D4D
     Track not present in AccurateRip database
     Copy OK

Track  8

     Filename C:\Users\Adi\Music\Pink Floyd - The Endless River (2014) FLAC\08 The Lost Art Of Conversation.wav

     Peak level 49.8 %
     Extraction speed 1.5 X
     Track quality 100.0 %
     Test CRC 9945CC68
     Copy CRC 9945CC68
     Track not present in AccurateRip database
     Copy OK

Track  9

     Filename C:\Users\Adi\Music\Pink Floyd - The Endless River (2014) FLAC\09 On Noodle Street.wav

     Peak level 68.7 %
     Extraction speed 1.5 X
     Track quality 100.0 %
     Test CRC D0D4332C
     Copy CRC D0D4332C
     Track not present in AccurateRip database
     Copy OK

Track 10

     Filename C:\Users\Adi\Music\Pink Floyd - The Endless River (2014) FLAC\10 Night Light.wav

     Peak level 62.4 %
     Extraction speed 1.5 X
     Track quality 100.0 %
     Test CRC 7FF8723D
     Copy CRC 7FF8723D
     Track not present in AccurateRip database
     Copy OK

Track 11

     Filename C:\Users\Adi\Music\Pink Floyd - The Endless River (2014) FLAC\11 Allons-Y (1).wav

     Peak level 88.2 %
     Extraction speed 1.6 X
     Track quality 100.0 %
     Test CRC 08E9633D
     Copy CRC 08E9633D
     Track not present in AccurateRip database
     Copy OK

Track 12

     Filename C:\Users\Adi\Music\Pink Floyd - The Endless River (2014) FLAC\12 Autumn '68.wav

     Peak level 76.7 %
     Extraction speed 1.5 X
     Track quality 100.0 %
     Test CRC 44238E32
     Copy CRC 44238E32
     Track not present in AccurateRip database
     Copy OK

Track 13

     Filename C:\Users\Adi\Music\Pink Floyd - The Endless River (2014) FLAC\13 Allons-Y (2).wav

     Peak level 91.5 %
     Extraction speed 1.6 X
     Track quality 100.0 %
     Test CRC F97CE105
     Copy CRC F97CE105
     Track not present in AccurateRip database
     Copy OK

Track 14

     Filename C:\Users\Adi\Music\Pink Floyd - The Endless River (2014) FLAC\14 Talkin' Hawkin'.wav

     Peak level 95.1 %
     Extraction speed 1.7 X
     Track quality 99.9 %
     Test CRC A9497541
     Copy CRC A9497541
     Track not present in AccurateRip database
     Copy OK

Track 15

     Filename C:\Users\Adi\Music\Pink Floyd - The Endless River (2014) FLAC\15 Calling.wav

     Pre-gap length  0:00:00.40

     Peak level 78.7 %
     Extraction speed 2.0 X
     Track quality 100.0 %
     Test CRC F68144EA
     Copy CRC F68144EA
     Track not present in AccurateRip database
     Copy OK

Track 16

     Filename C:\Users\Adi\Music\Pink Floyd - The Endless River (2014) FLAC\16 Eyes To Pearls.wav

     Peak level 74.4 %
     Extraction speed 1.8 X
     Track quality 100.0 %
     Test CRC 5E6905AC
     Copy CRC 5E6905AC
     Track not present in AccurateRip database
     Copy OK

Track 17

     Filename C:\Users\Adi\Music\Pink Floyd - The Endless River (2014) FLAC\17 Surfacing.wav

     Peak level 93.5 %
     Extraction speed 2.0 X
     Track quality 100.0 %
     Test CRC CD19ABA8
     Copy CRC CD19ABA8
     Track not present in AccurateRip database
     Copy OK

Track 18

     Filename C:\Users\Adi\Music\Pink Floyd - The Endless River (2014) FLAC\18 Louder Than Words.wav

     Peak level 97.4 %
     Extraction speed 2.4 X
     Track quality 100.0 %
     Test CRC D43D4A65
     Copy CRC D43D4A65
     Track not present in AccurateRip database
     Copy OK


None of the tracks are present in the AccurateRip database

No errors occurred

End of status report

---- CUETools DB Plugin V2.1.3

[CTDB TOCID: vEAIb7yHmCE83KIY7du6aGhJk6s-] found, Submit result: vEAIb7yHmCE83KIY7du6aGhJk6s- has been confirmed
[f9873d03] (3/3) Accurately ripped


==== Log checksum DE71B33B7F639B5D1EAAA233D39C920B89D7F94B3DA411594F403ACB94915F15 ====
« Last Edit: August 04, 2015, 12:47:39 pm by Kirnetro »

Social Buttons